#TITLE:Vanilla Extract;
#SUBTITLE:Super Mario World;
#ARTIST:Goolancer;
#TITLETRANSLIT:;
#SUBTITLETRANSLIT:;
#ARTISTTRANSLIT:;
#CREDIT:;
#BANNER:Vanilla Extract.png;
#BACKGROUND:Vanilla Extract-bg.png;
#LYRICSPATH:;
#CDTITLE:!danceguyTitle.png;
#MUSIC:Vanilla Extract.mp3;
#OFFSET:-0.044;
#SAMPLESTART:34.286;
#SAMPLELENGTH:12.000;
#SELECTABLE:YES;
#BPMS:0.000=175.000;
#STOPS:;
#BGCHANGES:;
// cache tags:
#FIRSTBEAT:0.000;
#LASTBEAT:335.625;
#SONGFILENAME:Songs/Music V.I.P ^_^/Vanilla Extract (dAnceguy117)/Vanilla Extract.sm;
#HASMUSIC:1;
#HASBANNER:1;
#MUSICLENGTH:118.883;
// end cache tags

//---------------dance-single - heavy----------------
#NOTES:
     dance-single:
     heavy:
     Hard:
     11:
     0.781,0.988,0.294,0.135,0.749,599.000,35.000,16.000,0.000,0.000:
0100
0000
0010
0000
,
0000
0000
0100
0100
0010
0000
0000
0100
,
0100
0000
0010
0000
,
0000
0000
0000
0000
0000
0100
0100
0100
,
0100
0000
0010
0000
,
0000
0000
0100
0100
0010
0000
0000
0010
,
0100
0000
0010
0000
,
0000
0000
0000
0000
0000
0000
0100
0000
0100
0000
0100
0000
,
0100
0000
0010
0000
,
0000
0000
0000
0000
0100
0000
0100
0100
,
0100
0000
0010
0000
,
0000
0000
0000
0000
1000
0001
0000
0000
0100
0000
0000
0000
0010
0000
0000
0000
1000
0001
0000
0000
0100
0000
0000
0000
1000
0001
0000
0000
1000
0001
0000
0000
,
0100
0001
1000
0001
0010
0001
1000
0001
,
1000
0001
0100
0100
0010
0001
1000
0100
,
0100
0001
1000
0001
0010
0001
1000
0001
,
1000
0001
1000
0001
1000
0100
0100
0100
,
0100
0001
1000
0001
0010
0001
1000
0001
,
1000
0001
0100
0100
0010
0001
1000
0010
,
0100
0001
1000
0001
0010
0001
1000
0001
,
1000
0000
0000
0001
0000
0000
1000
0000
0000
0001
0000
0000
0100
0000
0000
0000
0100
0000
0000
0000
0100
0000
0000
0000
,
0100
0001
1000
0001
0010
0001
1000
0001
,
1000
0001
1000
0001
0100
0001
0100
0100
,
0100
0001
1000
0001
0010
0001
1000
0001
,
1000
0000
0000
0000
1000
0001
0000
0000
0100
0000
0000
0000
0010
0000
0000
0000
1000
0001
0000
0000
0100
0000
0000
0000
1000
0001
0000
0000
1000
0001
0000
0000
,
0001
0010
0100
1000
0100
0010
0001
1000
0010
0000
0000
0000
0000
0000
0000
0000
0000
0000
0000
0000
0000
0000
0000
0000
,
0000
0000
0002
0003
,
1000
0010
0100
0001
0100
0010
1000
0001
0010
0000
0000
0000
0000
0000
0000
0000
0000
0000
0000
0000
0000
0000
0000
0000
,
0000
0000
2000
3000
,
0001
0100
0010
0100
0001
1000
0100
0010
0001
0000
0000
0000
0000
0000
0000
0000
0000
0000
0000
0000
0000
0000
0000
0000
,
0000
0000
0002
0003
,
1000
0010
0100
0001
1000
0100
0010
0001
1000
0000
0000
0000
0000
0000
0000
0000
0000
0000
0000
0000
0000
0000
0000
0000
,
0000
0000
2000
3000
,
0010
0100
0001
1000
0100
0010
0001
1000
0010
0000
0000
0000
0000
0000
0000
0000
0000
0000
0000
0000
0000
0000
0000
0000
,
0000
0000
0000
0000
,
0100
0001
1000
0100
0010
0001
1000
0010
1000
0000
0000
0000
0000
0000
0000
0000
0000
0000
0000
0000
0000
0000
0000
0000
,
0000
0000
0000
0000
,
0001
0010
0100
1000
0001
0100
0010
1000
0001
0000
0000
0000
0010
0000
0000
0000
0000
0000
0000
0000
0000
0000
0000
0000
,
0000
0000
0012
0003
,
1000
0010
0100
0001
1000
0100
0010
0001
1000
0000
0000
0000
0010
0000
0000
0000
0000
0000
0000
0000
0000
0000
0000
0000
,
0000
0000
2000
3000
,
0001
0010
0100
1000
0010
0100
0001
1000
0010
0000
0000
0000
0010
0000
0000
0000
0000
0000
0000
0000
0000
0000
0000
0000
,
0000
0000
0000
0000
0012
0000
0003
0010
,
1000
0010
0100
0001
0100
0010
1000
0100
0010
0000
0000
0000
0010
0000
0000
0000
0000
0000
0000
0000
0000
0000
0000
0000
,
0000
0000
2000
3000
,
0010
1000
0001
1000
0100
0010
0001
1000
0010
0000
0000
0000
0010
0000
0000
0000
0000
0000
0000
0000
0000
0000
0000
0000
,
0000
0000
0000
0000
,
0100
0001
1000
0100
0010
0001
1000
0010
0100
0000
0000
0000
0010
0000
0000
0000
0000
0000
0000
0000
0000
0000
0000
0000
,
0000
0000
0000
0000
1000
0001
0000
0000
0100
0000
0000
0000
0010
0000
0000
0000
1000
0001
0000
0000
0100
0000
0000
0000
1000
0001
0000
0000
1000
0001
0000
0000
,
0001
0010
0001
0100
0010
1000
0100
0010
0001
0000
0000
0000
0010
0000
0000
0000
0000
0000
0000
0000
0000
0000
0000
0000
,
0000
0000
0100
0100
0012
0000
0003
0100
,
1000
0001
0100
0010
1000
0100
0010
0001
0010
0000
0000
0000
0010
0000
0000
0000
0000
0000
0000
0000
0000
0000
0000
0000
,
0000
0000
0000
0000
2000
0100
3100
0100
,
0001
0100
0010
1000
0001
0010
0100
1000
0010
0000
0000
0000
0010
0000
0000
0000
0000
0000
0000
0000
0000
0000
0000
0000
,
0000
0000
0100
0100
0012
0000
0003
0010
,
1000
0001
0100
0001
1000
0100
0010
0001
0010
0000
0000
0000
0010
0000
0000
0000
0000
0000
0000
0000
0000
0000
0000
0000
,
0000
0000
0000
0000
0000
0000
2100
0000
0100
0000
0100
0000
,
3010
0100
0001
1000
0100
0010
0001
1000
0010
0000
0000
0000
0010
0000
0000
0000
0000
0000
0000
0000
0000
0000
0000
0000
,
0000
0000
0000
0000
0100
0000
0100
0100
,
0100
0010
1000
0100
0010
0001
1000
0001
0010
0000
0000
0000
0010
0000
0000
0000
0000
0000
0000
0000
0000
0000
0000
0000
,
0000
0000
0000
0000
1000
0001
0000
0000
0100
0000
0000
0000
0010
0000
0000
0000
1000
0001
0000
0000
0100
0000
0000
0000
1000
0001
0000
0000
1000
0001
0000
0000
,
0001
0100
0010
1000
0001
0100
0010
1000
0100
1000
0000
0000
0010
0000
0000
1000
0000
0000
0001
0000
0000
1000
0000
0000
,
0001
1000
0100
0100
0012
1000
1003
0100
,
1000
0001
0100
0010
1000
0100
0010
0001
1000
0001
0000
0000
0010
0000
0000
0001
0000
0000
1000
0000
0000
0001
0000
0000
,
1000
0001
1000
0001
2000
0100
0100
3100
,
0001
0010
0100
1000
0001
0100
0010
1000
0001
1000
0000
0000
0010
0000
0000
1000
0000
0000
0001
0000
0000
1000
0000
0000
,
0001
1000
0100
0100
0012
1000
1003
0010
,
1000
0001
0100
0010
1000
0100
0010
0001
1000
0001
0000
0000
0010
0000
0000
0001
0000
0000
1000
0000
0000
0001
0000
0000
,
1000
0000
0000
0001
0000
0000
1000
0000
0000
0001
0000
0000
2100
0000
0000
0000
0100
0000
0000
0000
0100
0000
0000
0000
,
3010
0100
0001
1000
0100
0010
0001
1000
0010
1000
0000
0000
0010
0000
0000
1000
0000
0000
0001
0000
0000
1000
0000
0000
,
0001
1000
0001
1000
0100
1000
0100
0100
,
0100
0010
0001
1000
0001
0100
0010
1000
0001
1000
0000
0000
0010
0000
0000
1000
0000
0000
0001
0000
0000
1000
0000
0000
,
0001
0000
0000
0000
1000
0001
0000
0000
0100
0000
0000
0000
0010
0000
0000
0000
1000
0001
0000
0000
0100
0000
0000
0000
1000
0001
0000
0000
1000
0001
0000
0000
,
1100
0001
1000
0001
1010
0001
1000
0001
,
1000
0001
1100
0101
1010
0001
1000
0101
,
1100
0001
1000
0001
1010
0001
1000
0001
,
1000
0001
1000
0001
1000
0101
1100
0101
,
1100
0001
1000
0001
1010
0001
1000
0001
,
1000
0001
1100
0101
1010
0001
1000
0011
,
1100
0001
1000
0001
1010
0001
1000
0001
,
1000
0000
0000
0001
0000
0000
1000
0000
0000
0001
0000
0000
1100
0000
0000
0001
0100
0000
1000
0000
0100
0001
0000
0000
,
1100
0001
1000
0001
1010
0001
1000
0001
,
1000
0001
1000
0001
1100
0001
1100
0101
,
1100
0001
1000
0001
1010
0001
1000
0001
,
1000
0000
0000
0000
1000
0001
0000
0000
0100
0000
0000
0000
0010
0000
0000
0000
1000
0001
0000
0000
0100
0000
0000
0000
1000
0001
0000
0000
1000
0001
0000
0000
;
